ZNF835 | bioCADDIE Data Discovery Index
Mountain View
biomedical and healthCAre Data Discovery Index Ecosystem
help Advanced Search
Displaying 3 of 3 results for "ZNF835"
i
  1. Differential Gene Expression between African American and European American Colorectal Cancer Patients OmicsDI

    ID: E-GEOD-28000

    Date Released: 05-02-2014

    Description: 2, PSPH, ADAL, VSIG10L, C17orf81, ARSE, ANKRD36B, ZNF835, ARHGAP6) were validated and differential expression confirmed by qRT-PCR in independent test set of 21 patients (10 AA, 11 EA). We also analyzed MSI in 57 of the CRC subjects. Overall, 15.8% of CRC patients had MSI, with a higher rate observed in EA (20%) than in AA (12%). MSI distribution by tumor site was 77% right and 23% left colon. Previously, genetic, epigenetic and environmental factors have been implicated in the etiology of CRC. Our results are the first to implicate differential gene expression in CRC disparities and support the existence of distinct tumor microenvironments in these two patients' populations. 126 total samples: 1) 43 white cancer samples; 2) 43 black cancer samples; 3) 27 white control samples; 4) 13 black control samples....

  2. Differential Gene Expression between African American and European American Colorectal Cancer Patients ArrayExpress

    ID: E-GEOD-28000

    Description: 2, PSPH, ADAL, VSIG10L, C17orf81, ARSE, ANKRD36B, ZNF835, ARHGAP6) were validated and differential expression confirmed by qRT-PCR in independent test set of 21 patients (10 AA, 11 EA). We also analyzed MSI in 57 of the CRC subjects. Overall, 15.8% of CRC patients had MSI, with a higher rate observed in EA (20%) than in AA (12%). MSI distribution by tumor site was 77% right and 23% left colon. Previously, genetic, epigenetic and environmental factors have been implicated in the etiology of CRC. Our results are the first to implicate differential gene expression in CRC disparities and support the existence of distinct tumor microenvironments in these two patients' populations. 126 total samples: 1) 43 white cancer samples; 2) 43 black cancer samples; 3) 27 white control samples; 4) 13 black control samples....

  3. Differential Gene Expression between African American and European American Colorectal Cancer Patients BioProject

    ID: PRJNA137793

    Keywords: Transcriptome or Gene expression

    Access Type: download

    dataset.description: 2, PSPH, ADAL, VSIG10L, C17orf81, ARSE, ANKRD36B, ZNF835, ARHGAP6) were validated and differential expression confirmed by qRT-PCR in independent test set of 21 patients (10 AA, 11 EA). We also analyzed MSI in 57 of the CRC subjects. Overall, 15.8% of CRC patients had MSI, with a higher rate observed in EA (20%) than in AA (12%). MSI distribution by tumor site was 77% right and 23% left colon. Previously, genetic, epigenetic and environmental factors have been implicated in the etiology of CRC. Our results are the first to implicate differential gene expression in CRC disparities and support the existence of distinct tumor microenvironments in these two patients' populations. Overall design: 126 total samples: 1) 43 white cancer samples; 2) 43 black cancer samples; 3) 27 white control samples; 4) 13 black control samples....

Displaying 3 of 3 results for "ZNF835"